星宿符文,萌寵相伴!蠢萌怪物 Q萌來襲!號令天下 莫敢不從!3D西方魔幻激鬥
clubaudition ( 銀影伊賽兒 )
手機認證徽章
Lv. 14 | 文章數:592 | 推薦數:26 | 被推數:76 #1. 2011-02-09 20:03:21
影音名稱『銀翼の奇術師』主題歌 Dream x Dream 愛內里菜
影音長度00:04:12
影音來源銀影伊賽兒
影音標籤Dream x 愛內里菜 銀翼の奇術師
影片來源由藍光光碟 BDLive更新所獲得 3段m2t重新合併封裝為m2ts
General
ID : 1
Complete name : F:\music\Anime\Conan\Movie\『銀翼の奇術師』主題歌 Dream x Dream 愛內里菜.m2ts
Format : BDAV
Format/Info : Blu-ray Video
File size : 103 MiB
Duration : 4mn 11s
Overall bit rate : 3 425 Kbps
Maximum Overall bit rate : 35.5 Mbps


Video
ID : 4113 (0x1011)
Menu ID : 1 (0x1)
Format : AVC
Format/Info : Advanced Video Codec
Format profile :
Main@L4.0
Format settings, CABAC : Yes
Format settings, ReFrames : 3 frames
Duration : 4mn 11s
Bit rate mode : Variable
Bit rate : 3 089 Kbps
Maximum bit rate : 12.0 Mbps
Width : 1 920 pixels
Height : 1 080 pixels
Display aspect ratio : 16:9
Frame rate : 24.000 fps
Standard : NTSC
Color space : YUV
Chroma subsampling : 4:2:0
Bit depth : 8 bits
Scan type : Progressive
Bits/(Pixel*Frame) : 0.062
Stream size : 92.7 MiB (90%)


Audio
ID : 4352 (0x1100)
Menu ID : 1 (0x1)
Format : AC-3
Format/Info : Audio Coding 3
Mode extension : CM (complete main)
Duration : 4mn 11s
Bit rate mode : Constant
Bit rate : 192 Kbps
Channel(s) : 2 channels
Channel positions : Front: L R
Sampling rate : 48.0 KHz
Bit depth : 16 bits
Stream size : 5.76 MiB (6%)
Language : Japanese


礙於版權問題有需要藍光版本的請訊息通知
LovelyGGYY ( 夜神星魂 )
家族板板主家族板副板主gamebook開站活動紀念徽章手機認證徽章值日生值日模範生基地10週年慶紀念徽章《夢幻修仙》好事成兔基地新手榮譽徽章
Lv. 41 | 文章數:15192 | 推薦數:1318 | 被推數:5388 #2. 2011-02-13 14:47:10
銀翼的奇術師這一部劇場版是我第一次去電影院看有關柯南的電影呢,歌也很有fu喔!^^
來源IP:24.18.206.* /
簽名檔
天界、冥界與人界!夾雜在天地二界之中、與人界共存的妖界,擁有絕對力量的妖怪們正在黑暗的深淵蠢蠢欲動,準備伸出它們的魔爪,襲向人類世界!

奉父皇的命令與背負著不為人知的過去,妖界西國的皇子-水鏡凍季也也來到了人界修行。斬斷過去的枷鎖、走向武力治國的霸道!

夜神星魂的全新小說-《妖界啟示錄》將引導您走向這段漫長的天下霸道之路!

← 點圖進小說。
快速回覆 | 註冊 使用完整編輯模式回覆
討論板頭像 [ 設定 ] |簽名檔 [ 設定 ]
有人回覆時通知我 【通知管理